#TITLE:Xuan vui;
#SUBTITLE:;
#ARTIST:RapSoul;
#TITLETRANSLIT:;
#SUBTITLETRANSLIT:;
#ARTISTTRANSLIT:;
#CREDIT:.;
#BANNER:;
#BACKGROUND:;
#LYRICSPATH:;
#CDTITLE:Xuanvuicdtitle.jpg;
#MUSIC:Xuan vui - RapSoul.mp3;
#OFFSET:-3.500;
#SAMPLESTART:100.000;
#SAMPLELENGTH:12.000;
#SELECTABLE:YES;
#BPMS:0.000=142.000,200.250=132.000,200.500=122.000,200.750=112.000,201.250=115.000,201.500=122.000,201.750=132.000,202.000=142.000;
#STOPS:;
#BGCHANGES:;
// cache tags:
#FIRSTBEAT:8.000;
#LASTBEAT:336.000;
#SONGFILENAME:Songs/Super Dancer Online/Xuan vui - Rapsoul/Xuan vui - RapSoul.sm;
#HASMUSIC:1;
#HASBANNER:0;
#MUSICLENGTH:150.995;
// end cache tags

//---------------dance-single - ----------------
#NOTES:
     dance-single:
     :
     Hard:
     15:
     1.000,1.000,1.000,0.066,0.907,802.000,256.000,10.000,0.000,38.000:
0000
0000
0000
0000
,
0000
0000
0000
0000
,
0101
0000
0000
0010
0000
0000
1000
0000
0010
0000
0001
0010
0000
0010
0001
0000
,
1010
0000
0000
1000
0000
0000
0100
0000
0010
0000
1000
0100
0000
0100
1000
0000
,
0101
0000
0000
0100
0000
0000
0001
0000
0100
0000
0001
0000
0100
0010
0000
0000
,
1010
0000
0000
0001
0000
0000
1000
0000
0001
0000
0010
0000
0010
0001
0000
0000
,
1110
0000
0000
0111
0000
0000
1101
0000
1011
0000
0110
0000
1110
0001
0000
0000
,
0111
0000
0000
0100
0000
0000
0001
0000
0100
0000
0010
0000
0100
1000
0000
0000
,
0101
0000
0000
0100
0000
0000
0001
0000
0100
0000
0010
0000
0000
0001
0000
0000
,
1001
0000
0000
0100
0000
0000
0001
0000
0100
0000
0001
0000
0010
1000
0000
0000
,
0111
0000
0000
0100
0000
0000
0001
0000
0100
0000
0001
0000
0100
0010
0000
0000
,
0101
0000
0000
0100
0000
0000
0001
0000
0100
0000
0001
0000
0100
0010
0000
0000
,
0110
0000
0000
0110
0000
0000
0110
0000
0110
0000
0000
0011
0000
0000
0011
0000
,
0011
0000
0000
1100
0000
0000
1100
0000
1100
0000
0000
0110
0000
0000
0101
0000
,
1010
1001
1010
0101
0110
0101
1010
0101
,
0100
0010
0100
0010
0100
0010
0100
0010
1000
0001
1000
0001
1000
0001
1000
0001
,
0220
0000
0000
0000
,
1331
0000
0000
0000
0000
0000
1001
0000
1010
0000
0101
0000
0010
0100
0000
0000
,
0111
0000
0010
0100
1010
0001
0100
0000
0100
1000
0001
1010
0100
0010
1000
0100
,
1010
0000
1100
0010
0001
0100
1010
0000
1000
0010
1100
0000
0100
0010
0100
0000
,
0110
0000
1000
0100
1010
0000
0010
1001
0110
0000
0101
0000
0100
0010
1001
0000
,
0101
0000
0001
0110
1001
0000
1010
0001
1000
0010
1001
0000
1001
0100
0010
0100
,
1001
0000
0010
0100
1001
0000
0101
0010
1001
0000
0001
0010
1001
0100
0011
0000
,
0101
0000
0001
0010
0100
0010
0001
1000
0100
0100
1010
0000
1100
0010
1001
0010
,
1100
0000
0010
1001
0110
0000
1010
0001
0100
0001
1010
0000
1010
0100
1001
0010
,
1001
0100
0010
0100
0010
1000
0010
0100
0001
0100
0010
0001
0010
0101
1001
0001
,
1110
0010
0110
1000
0101
0010
0011
0100
,
1010
1000
0101
0010
1100
1000
0101
0100
,
1010
0001
0110
0100
1010
0001
0110
1000
,
0110
1000
1100
0100
0101
0010
0101
0010
,
1100
0100
0101
0010
1100
0010
0011
0100
,
1100
0001
1010
0100
0011
0100
1010
1000
,
0110
1000
0110
0001
1001
0010
0101
0010
,
0001
0100
0010
1000
0001
0100
0010
1000
0001
1000
0100
1000
1000
0100
0010
0001
,
1110
0001
0101
0010
,
1100
0010
1010
0100
,
0011
0010
0110
0100
,
1100
0001
1010
0100
,
0011
0100
1010
0010
,
0101
0100
1010
0001
,
0110
0100
0110
0010
,
0011
0000
0011
0000
0011
0000
0011
0000
0011
0011
0011
0011
0011
0011
0110
0000
,
1011
0000
0001
0010
0100
0010
0100
1000
0010
0100
0010
1000
0010
0100
0001
0100
,
0010
1000
0001
0010
1000
0001
0100
0010
1000
0001
0100
1000
0010
0001
0100
0010
,
0100
0001
0010
0100
1000
0100
0010
1000
0010
0100
1000
0010
0001
0100
1000
0010
,
0100
0010
0001
0010
1000
0001
1000
0100
1000
0010
0001
0010
0100
0001
1000
0100
,
1000
1000
0100
0001
0010
0010
0001
1000
0100
0100
1000
0010
0001
0001
0010
1000
,
0010
0010
0100
0100
0001
0001
1000
1000
0010
0010
0100
0100
0001
0001
0010
0010
,
0100
0100
1000
1000
0100
0100
0010
0010
0001
0001
0010
0010
0100
0100
1000
1000
,
0100
0010
0100
0010
0100
0010
0100
0010
0001
0001
0001
0001
0001
0001
0001
0001
,
0220
0000
0000
0000
,
1331
0000
0000
0100
0000
0000
0001
0000
0100
0000
0001
0000
0100
0010
0000
0000
,
0101
0000
0000
0001
0000
0000
0100
0000
1000
0000
0010
0000
0010
0100
0000
0000
,
1010
0000
0000
0100
0000
0000
1000
0000
0001
0000
0100
0000
0100
1000
0000
0000
,
0101
0000
0000
0001
0000
0000
0100
0000
0010
0000
1000
0000
0100
0001
0000
0000
,
0110
0000
0000
1000
0000
0000
1000
0000
0010
0000
0100
0000
0100
1000
0000
0000
,
0101
0000
0000
1000
0000
0000
0001
0000
0010
0000
0001
0000
1000
0010
0000
0000
,
1010
0000
0000
0100
0000
0000
1000
0000
0001
0000
0100
0000
0010
0100
0000
0000
,
1110
0000
0000
1011
0000
0000
0110
0000
1011
0000
1110
0000
0110
0110
0000
0000
,
1110
0000
0000
0010
0000
0000
0010
0000
0100
0000
1000
0000
0100
1000
0000
0000
,
0101
0000
0000
0001
0000
0000
1000
0000
0100
0000
1000
0000
1000
0010
0000
0000
,
0110
0000
0000
0100
0000
0000
0001
0000
0100
0000
0001
0000
0100
0010
0000
0000
,
0111
0000
0000
0100
0000
0000
0001
0000
0100
0000
0001
0010
0001
0100
0001
0100
,
1010
0001
0100
0010
1000
0010
0100
0001
0110
1000
0100
1000
0101
0010
0100
1010
,
0001
0010
1001
0100
0110
1000
0100
0010
1001
0010
0100
0010
1001
0100
1010
0001
,
1010
0100
0001
0100
1001
0110
1001
0010
1001
0100
0010
0001
1010
0100
0011
0100
,
2002
0000
0000
0010
0000
0000
0010
0000
0010
0000
0010
0000
0010
0010
0010
0010
,
3013
0000
0010
0100
0010
0000
0100
0010
1001
0000
1001
0000
0010
0100
1001
0000
,
0101
0000
0010
0100
0011
0000
0100
0010
0101
1000
0001
0010
0100
0010
0001
0000
,
1001
0000
0100
1001
0110
0000
1010
0001
1000
0010
1001
0100
0010
0100
1001
0000
,
1001
0000
0001
0110
1001
0000
1000
0100
1010
0000
1100
0010
1001
0010
1100
0000
,
0111
0000
1000
0110
1001
0000
0010
1001
0110
0000
1100
0001
0010
0100
1010
0000
,
0111
0000
0010
0001
0110
0000
0100
0010
1001
0000
1001
0010
0100
0010
1001
0000
,
0111
0000
0100
0001
1100
0000
0010
0100
1010
0000
1010
0001
0100
0010
1001
0000
,
1101
0000
0010
1100
0011
0000
0100
0010
1001
0000
0011
0100
1000
0010
0101
0000
,
1011
0100
0010
0100
1001
0000
0101
0010
1001
0000
1100
0010
0001
0010
1100
0000
,
0101
0010
0100
0011
1100
0001
0010
1000
0110
0000
1100
0010
1001
0100
0011
0000
,
1010
0100
0001
0100
1010
0001
1100
0010
1001
0000
0110
1000
0010
0100
1001
0000
,
0111
0000
0100
0010
1001
0000
0001
0100
1010
0000
1001
0100
0010
0100
1001
0000
,
0111
0000
1000
0100
1010
0000
0100
0010
1001
0000
0011
0100
1000
0010
1001
0000
,
1001
0100
0010
0100
0011
1000
0110
1001
0010
0000
1000
0100
0010
0100
1000
0000
,
0111
0000
1000
0110
1001
0000
0010
0001
1100
0000
0011
0100
1010
0001
0110
0000
,
1101
0000
0010
1100
0011
0000
0001
0010
0101
0000
0001
0000
0100
0010
0100
0000
,
2222
0000
0000
0000
,
3333
0000
0000
0000
;
